Black Book full movie 720p free download | Descendants of the Sun | The Philosophy of Film Noir

Big Brother

PBB Double Up Episode 4 10 07 09 Philippines tvrip (Tagalog) [tukmol101]

  • Download 5x Faster
  • Download torrent
  • Direct Download
  • Rate this torrent +  |  -

Torrent info

Name:PBB Double Up Episode 4 10 07 09 Philippines tvrip (Tagalog) [tukmol101]

Total Size: 374.95 MB

Magnet: Magnet Link

Seeds: 0

Leechers: 0

Stream: Watch Full Movie @ Movie4u

Last Updated: 2018-04-15 16:30:05 (Update Now)

Torrent added: 2009-10-08 01:33:40



CyberGhost VPN For Torrents

Torrent Files List


Episode 4 10.07.09.avi (Size: 374.95 MB) (Files: 2)

 Episode 4 10.07.09.avi

367.34 MB

 sample.avi

7.61 MB
 

tracker

leech seeds
 

Torrent description

Episode 4IOctober 7, 2009
JM assumes a dual role in Big Brother's house

In consideration of his family’s survival, JP decides to voluntarily exit Big Brother’s house;
and since the latter claims that he feels for the lad, he gladly accepts his decision. In line with
the said decision, JM’s stay in the house is also put at risk. Apparently, JM’s stay is supposed to
rely on his twin brother’s; but given the said unfortunate situation, Big Brother opts to give out an exemption.

After JP left the house, JM is instantly summoned inside the confession room, and Big Brother imparts
to him the critical decision JP made for his family. Given their special situation, JM is then given a special
task; he has to push through with their main task, meaning he has to play both roles, or else he will forcefully
be evicted.

In order to start the task, JM is asked to take the role of JP in house B unnoticed; and surprisingly,
he successfully pulls it off with Kenny’s help. How long could JM portray his dual role to assume his stay
inside the house? Stay tuned on Pinoy Big Brother Double Up Uber and Primetime editions.

General
Complete name : Episode 4 10.07.09.avi
Format : AVI
Format/Info : Audio Video Interleave
File size : 367 MiB
Duration : 40mn 51s
Overall bit rate : 1 257 Kbps
Writing application : VirtualDubMod 1.5.4.1 (build 2178/release)
Writing library : VirtualDubMod build 2178/release

Video
ID : 0
Format : MPEG-4 Visual
Format profile : [email protected]
Format settings, BVOP : Yes
Format settings, QPel : No
Format settings, GMC : No warppoints
Format settings, Matrix : Default (H.263)
Muxing mode : Packed bitstream
Codec ID : XVID
Codec ID/Hint : XviD
Duration : 40mn 51s
Bit rate : 1 137 Kbps
Width : 592 pixels
Height : 448 pixels
Display aspect ratio : 4:3
Frame rate : 29.970 fps
Resolution : 24 bits
Colorimetry : 4:2:0
Scan type : Progressive
Bits/(Pixel*Frame) : 0.143
Stream size : 332 MiB (90%)
Writing library : XviD 1.2.1 (UTC 2008-12-04)

Audio
ID : 1
Format : MPEG Audio
Format version : Version 1
Format profile : Layer 3
Codec ID : 55
Codec ID/Hint : MP3
Duration : 40mn 51s
Bit rate mode : Variable
Bit rate : 106 Kbps
Nominal bit rate : 128 Kbps
Channel(s) : 2 channels
Sampling rate : 48.0 KHz
Resolution : 16 bits
Stream size : 31.0 MiB (8%)
Alignment : Aligned on interleaves
Interleave, duration : 24 ms (0.72 video frame)
Interleave, preload duration : 493 ms
Writing library : LAME3.98r
Encoding settings : -m j -V 4 -q 2 -lowpass 17 --abr 128

related torrents

Torrent name

health leech seeds Size
 


comments (0)

Main Menu