Avengers.Infinity.War.3D.201... | - Red.Dog.Mein.treuer.Freund.2016.G... | Il giovane Karl Marx

Big Brother

PBB Double Up 10 08 09 Philippines tvrip (Tagalog) [tukmol101]

  • Download 5x Faster
  • Download torrent
  • Direct Download
  • Rate this torrent +  |  -

Torrent info

Name:PBB Double Up 10 08 09 Philippines tvrip (Tagalog) [tukmol101]

Total Size: 347.59 MB

Magnet: Magnet Link

Seeds: 0

Leechers: 0

Stream: Watch Full Movie @ Movie4u

Last Updated: 2018-04-15 16:21:15 (Update Now)

Torrent added: 2009-10-09 07:49:52



CyberGhost VPN For Torrents

Torrent Files List


PBB Double Up Episode 5.avi (Size: 347.59 MB) (Files: 2)

 PBB Double Up Episode 5.avi

340.37 MB

 sample.avi

7.22 MB
 

tracker

leech seeds
 

Torrent description

Princess Lieza Manzon was raised by her grandparents because her mother was busy working in Japan.
After high school, she left the Philippines to be with her mom in Japan. But there she discovered her
mother’s dark secret. She was greatly devastated so she decided to live on her own in the Land of the Rising Sun.
Princess worked as a restaurant receptionist and as a language translator and interpreter. She fell in love with
a man who later broke her heart.

Episode 5IOctober 8, 2009
Kenny and Toffi are up for a risky adventure
Last night, the girls in House B grew suspicious of Toffi, so Big Brother tried cleaning up the mess by asking Kenny to discreetly switch places with his twin. In the middle of the night, Kenny was commanded to sneak in the said house to secretly execute the task. He woke up his brother Toffi, and they immediately exchanged places. They were able to successfully finish the task; but unfortunately, the girls immediately noticed the transformation once again the following morning.

If you think the task is tough for the twins, you better think again. For the twins' next assignment, Big Brother clearly requires Toffi and Kenny to stay inside the same house—House B—unobserved, with JM's help of course. Can the twins overcome the said task up until 12 midnight in exchange for their assured permanent slots inside Big Brother's house? Stay tuned in Pinoy Big Brother Uber and Primetime editions to find out.

General
Complete name : PBB Double Up Episode 5.avi
Format : AVI
Format/Info : Audio Video Interleave
File size : 340 MiB
Duration : 37mn 36s
Overall bit rate : 1 265 Kbps
Writing application : VirtualDubMod 1.5.4.1 (build 2178/release)
Writing library : VirtualDubMod build 2178/release

Video
ID : 0
Format : MPEG-4 Visual
Format profile : [email protected]
Format settings, BVOP : Yes
Format settings, QPel : No
Format settings, GMC : No warppoints
Format settings, Matrix : Default (H.263)
Muxing mode : Packed bitstream
Codec ID : XVID
Codec ID/Hint : XviD
Duration : 37mn 36s
Bit rate : 1 144 Kbps
Width : 592 pixels
Height : 448 pixels
Display aspect ratio : 4:3
Frame rate : 29.970 fps
Resolution : 24 bits
Colorimetry : 4:2:0
Scan type : Progressive
Bits/(Pixel*Frame) : 0.144
Stream size : 308 MiB (90%)
Writing library : XviD 1.2.1 (UTC 2008-12-04)

Audio
ID : 1
Format : MPEG Audio
Format version : Version 1
Format profile : Layer 3
Codec ID : 55
Codec ID/Hint : MP3
Duration : 37mn 36s
Bit rate mode : Variable
Bit rate : 107 Kbps
Nominal bit rate : 128 Kbps
Channel(s) : 2 channels
Sampling rate : 48.0 KHz
Resolution : 16 bits
Stream size : 28.9 MiB (8%)
Alignment : Aligned on interleaves
Interleave, duration : 24 ms (0.72 video frame)
Interleave, preload duration : 468 ms
Writing library : LAME3.98r
Encoding settings : -m j -V 4 -q 2 -lowpass 17 --abr 128

related torrents

Torrent name

health leech seeds Size
 


comments (0)

Main Menu