Leroy y Stitch | Скачать XAPK | Watch Movie

Big Brother

PBB Double Up Episode 7 10 10 09 Philippines tvrip (Tagalog) [tukmol101]

  • Download 5x Faster
  • Download torrent
  • Direct Download
  • Rate this torrent +  |  -

Torrent info

Name:PBB Double Up Episode 7 10 10 09 Philippines tvrip (Tagalog) [tukmol101]

Total Size: 481.06 MB

Magnet: Magnet Link

Seeds: 0

Leechers: 0

Stream: Watch Full Movie @ Movie4u

Last Updated: 2018-04-15 16:15:27 (Update Now)

Torrent added: 2009-10-10 22:01:51



CyberGhost VPN For Torrents

Torrent Files List


Episode 7 The Spooktacular Reveal.avi (Size: 481.06 MB) (Files: 2)

 Episode 7 The Spooktacular Reveal.avi

478.31 MB

 sample.avi

2.75 MB
 

tracker

leech seeds
 

Torrent description

Episode 7 October 10, 2009
Big Brother welcomes more new housemates
Big Brother had finally revealed to the housemates
about his two houses. But the surprises have yet to
stop because ten new personalities have made their way
inside the house to become official housemates of Pinoy
Big Brother Double Up. In a pre-Halloween party, Kuya
welcomed Fil Austrian Rod Stumvol, champion target
shooter Steve Jumalon, banker Patrick Villanueva,
medical representative Riza Mae Patria, restaurant
server Johan Santos, nurse Cathy Remperas,
US balikbayan Hermes Bautista, Jimson Ortega
and his Spain-raised wife Kathleen Lopeña, and
transvestite Rica Paras. These are the new faces
set to add more spice in the unpredictable environment
inside the PBB house.

Rod, Patrick, Jimson, Kathleen, and Rica were
immediately called into the confession. There,
Kuya gave them their very first task which will
prove how far they are willing to go to become official housemates. Rod and Rica must convince the others that they have been dating for a long time. Meanwhile, Jimson must give away his wife Kathleen to pretend as the better half of Patrick. Success in this task means the house where they will be assigned will win 100% additional budget by the end of the week. However, failure might mean that they will have to suffer the same fate as evicted housemates JM Lagumbay and twins Kenny and Toffi Santos.

Will they be able to put a convincing act?
What task does Big Brother has in store for other
new housemates Patria, Cathy, Hermes, Johan, and Steve? Find out on Pinoy Big Brother Double Up weeknights after Dahil May Isang Ikaw. Text BBNEWS ON to 2366 to get the latest PBB Double UP updates.
General
Complete name : F:\PBB Double Up Episode 7 10.10.09 Philippines tvrip (Tagalog) [tukmol101]\Episode 7 The Spooktacular Reveal.avi
Format : AVI
Format/Info : Audio Video Interleave
File size : 478 MiB
Duration : 1h 0mn
Overall bit rate : 1 103 Kbps
Writing application : VirtualDubMod 1.5.4.1 (build 2178/release)
Writing library : VirtualDubMod build 2178/release

Video
ID : 0
Format : MPEG-4 Visual
Format profile : [email protected]
Format settings, BVOP : Yes
Format settings, QPel : No
Format settings, GMC : No warppoints
Format settings, Matrix : Default (H.263)
Muxing mode : Packed bitstream
Codec ID : XVID
Codec ID/Hint : XviD
Duration : 1h 0mn
Bit rate : 980 Kbps
Width : 592 pixels
Height : 448 pixels
Display aspect ratio : 4:3
Frame rate : 29.970 fps
Resolution : 24 bits
Colorimetry : 4:2:0
Scan type : Progressive
Bits/(Pixel*Frame) : 0.123
Stream size : 425 MiB (89%)
Writing library : XviD 1.2.1 (UTC 2008-12-04)

Audio
ID : 1
Format : MPEG Audio
Format version : Version 1
Format profile : Layer 3
Codec ID : 55
Codec ID/Hint : MP3
Duration : 1h 0mn
Bit rate mode : Variable
Bit rate : 108 Kbps
Nominal bit rate : 128 Kbps
Channel(s) : 2 channels
Sampling rate : 48.0 KHz
Resolution : 16 bits
Stream size : 46.9 MiB (10%)
Alignment : Aligned on interleaves
Interleave, duration : 24 ms (0.72 video frame)
Interleave, preload duration : 461 ms
Writing library : LAME3.98r
Encoding settings : -m j -V 4 -q 2 -lowpass 17 --abr 128

related torrents

Torrent name

health leech seeds Size
 


comments (0)

Main Menu