Date My Dad | Parenthood (2010) | ↳ Hip-Hop

Big Brother

PBB Double Up S03E09 10 12 09 Philippines tvrip (Tagalog) [tukmol101]

  • Download 5x Faster
  • Download torrent
  • Direct Download
  • Rate this torrent +  |  -

Torrent info

Name:PBB Double Up S03E09 10 12 09 Philippines tvrip (Tagalog) [tukmol101]

Total Size: 331.62 MB

Magnet: Magnet Link

Seeds: 0

Leechers: 0

Stream: Watch Full Movie @ Movie4u

Last Updated: 2018-04-15 16:12:08 (Update Now)

Torrent added: 2009-10-12 21:01:17



CyberGhost VPN For Torrents

Torrent Files List


PBB Double Up S03E09.avi (Size: 331.62 MB) (Files: 1)

 PBB Double Up S03E09.avi

331.62 MB
 

tracker

leech seeds
 

Torrent description

Mindoro's tough guy Jason Francisco (but with a soft heart) celebrated his 22nd birthday inside the Pinoy Big Brother house yesterday, October 11, 2009.

Since Jason has been very vocal that "Nagsimula Sa Puso" star Maja Salvador is his ultimate showbiz crush, Big Brother gave the real Maja Salvador as his "birthday treat" to him.

Maja entered the confession much to Jason's surprise and asked him what he wants.

Jason asked for a kiss, and Maja willingly gave it.

Later that day, a birthday celebration for Jason had been prepared. (They had Colt 45 as their drink)

Melisa 'Melay' Cantiveros was dressed up so sexy like Maja Salvador and gave a birthday message to Jason.

Her birthday wish? Sana mahalin mo ako Jason.

General
Complete name : PBB Double Up E09.avi
Format : AVI
Format/Info : Audio Video Interleave
File size : 332 MiB
Duration : 36mn 17s
Overall bit rate : 1 277 Kbps
Writing application : VirtualDubMod 1.5.4.1 (build 2178/release)
Writing library : VirtualDubMod build 2178/release

Video
ID : 0
Format : MPEG-4 Visual
Format profile : [email protected]
Format settings, BVOP : Yes
Format settings, QPel : No
Format settings, GMC : No warppoints
Format settings, Matrix : Default (H.263)
Muxing mode : Packed bitstream
Codec ID : XVID
Codec ID/Hint : XviD
Duration : 36mn 17s
Bit rate : 1 155 Kbps
Width : 576 pixels
Height : 432 pixels
Display aspect ratio : 4:3
Frame rate : 29.970 fps
Resolution : 24 bits
Colorimetry : 4:2:0
Scan type : Progressive
Bits/(Pixel*Frame) : 0.155
Stream size : 300 MiB (90%)
Writing library : XviD 1.2.1 (UTC 2008-12-04)

Audio
ID : 1
Format : MPEG Audio
Format version : Version 1
Format profile : Layer 3
Codec ID : 55
Codec ID/Hint : MP3
Duration : 36mn 17s
Bit rate mode : Variable
Bit rate : 108 Kbps
Nominal bit rate : 128 Kbps
Channel(s) : 2 channels
Sampling rate : 48.0 KHz
Resolution : 16 bits
Stream size : 28.1 MiB (8%)
Alignment : Aligned on interleaves
Interleave, duration : 24 ms (0.72 video frame)
Interleave, preload duration : 488 ms
Writing library : LAME3.98r
Encoding settings : -m j -V 4 -q 2 -lowpass 17 --abr 128

related torrents

Torrent name

health leech seeds Size
 


comments (0)

Main Menu