Музыка | Broti Pacek – irgendwas ist immer | Upcoming

Big Brother

PBB Double Up S03E20 10 23 09 Philippines tvrip (Tagalog) [tukmol101]

  • Download 5x Faster
  • Download torrent
  • Direct Download
  • Rate this torrent +  |  -

Torrent info

Name:PBB Double Up S03E20 10 23 09 Philippines tvrip (Tagalog) [tukmol101]

Total Size: 315.53 MB

Magnet: Magnet Link

Seeds: 0

Leechers: 0

Stream: Watch Full Movie @ Movie4u

Last Updated: 2018-04-15 15:26:32 (Update Now)

Torrent added: 2009-10-23 19:02:32



CyberGhost VPN For Torrents

Torrent Files List


S03E20.avi (Size: 315.53 MB) (Files: 2)

 S03E20.avi

315.53 MB

 PBB Read Me.txt

5.42 KB
 

tracker

leech seeds
 

Torrent description

Episode 20 October 23, 2009

The housemates\' fan-dance presentation day finally arrives

The night before the performance day, Big Brother speaks with the housemates regarding their
corresponding costumes for their fan-dance presentation. On the said conversation, some housemates
remain firm with their decision, while others end up changing their minds after hearing what their
families have to say.

When the day that all the housemates have been waiting for finally arrived, most of them are surprised to
discover that their expected cumulative points enormously decreased. From their estimated 430 points, House A
ended up having a final count of 350 due to certain circumstances. But despite their dismay, they decide to
push through with what they have left anyway.

In contrast, upon learning that their still unidentified housemates have had a change of heart, House B finally
decides to let go of all their inhibitions for the sake of their team. They all agree to wear skin-toned body
stockings with only the basic 100 points to spare.

With House A’s 350 points versus House B’s 100, could the latter beat the odds of this friendly competition?
Find out tomorrow on Pinoy Big Brother Double Up, right after MMK.


\"WHO WILL BE THE FIRST EVICTEE IN “PINOY BIG BROTHER DOUBLE UP?”

The housemates of “Pinoy Big Brother Double Up” thought they would simply be dancing in their 3rd weekly task
\"TakFAN mo Dance.\" Little did they know their
convictions would also be tested after they were made to choose to dance wearing skintone undergarment,
a t-back, or in the nude with only a smiley to cover their private part.

Pressure has doubled too with the on-going rivalry between the two houses and the peer pressure among
housemates of the same house. Jason of House A, for example, was being coaxed to go all the way by his
housemates so they would get more additional points and win the budget for next week. In the end, he did
not bow to them.

Then the housemates would also face the opinions of their loved ones. Patrick had second thoughts after he
heard his wife tell him \"what\'s private between husband and wife must be kept private.\" Mariel was also
reminded by her mother that her decision may offend the conservative Filipino church-goers.

How did the housemates cope with Kuya’s test? How will they do when the two houses face-off for the first
time? Find out how this coming Saturday (Oct 24) on the first “PBB Eviction night” with Toni Gonzaga, Mariel
Rodriguez, and Bianca Gonzales after “Maalaala Mo Kaya” on ABS-CBN.

Who among Princess, Jason, Jim and Carol, will leave the Pinoy Big Brother House? There is still time to vote,
just text BB space NAME OF HOUSEMATE, and send to 2331 for Globe, TM, Sun Cellular and Bayan wireless
subscribers, or 231 for Smart and Talk N Text subscribers.

Receive the latest news about “PBB Double Up” in Twitter! Just search for PBBSECRETARY and click FOLLOW at
www.twitter.com.

Subscribe to PBB 24/7 livestreaming now! Log on to www.pinoybigbrother.com. For more details log on to
www.pinoybigbrother.com.
General
Complete name : S03E20.avi
Format : AVI
Format/Info : Audio Video Interleave
File size : 316 MiB
Duration : 32mn 57s
Overall bit rate : 1 338 Kbps
Writing application : VirtualDubMod 1.5.4.1 (build 2178/release)
Writing library : VirtualDubMod build 2178/release

Video
ID : 0
Format : MPEG-4 Visual
Format profile : [email protected]
Format settings, BVOP : Yes
Format settings, QPel : No
Format settings, GMC : No warppoints
Format settings, Matrix : Default (H.263)
Muxing mode : Packed bitstream
Codec ID : XVID
Codec ID/Hint : XviD
Duration : 32mn 57s
Bit rate : 1 219 Kbps
Width : 560 pixels
Height : 416 pixels
Display aspect ratio : 4:3
Frame rate : 29.970 fps
Resolution : 24 bits
Colorimetry : 4:2:0
Scan type : Progressive
Bits/(Pixel*Frame) : 0.175
Stream size : 287 MiB (91%)
Writing library : XviD 1.2.1 (UTC 2008-12-04)

Audio
ID : 1
Format : MPEG Audio
Format version : Version 1
Format profile : Layer 3
Codec ID : 55
Codec ID/Hint : MP3
Duration : 32mn 57s
Bit rate mode : Variable
Bit rate : 105 Kbps
Nominal bit rate : 128 Kbps
Channel(s) : 2 channels
Sampling rate : 48.0 KHz
Resolution : 16 bits
Stream size : 24.8 MiB (8%)
Alignment : Aligned on interleaves
Interleave, duration : 24 ms (0.72 video frame)
Interleave, preload duration : 532 ms
Writing library : LAME3.98r
Encoding settings : -m j -V 4 -q 2 -lowpass 17 --abr 128

related torrents

Torrent name

health leech seeds Size
 


comments (0)

Main Menu