Los Cuatro Guerreros | Adobe Camera Raw CC 11.0 | The Good Doctor

Big Brother

PBB Double Up S03E22 2nd nomination Night 10 25 09 Philippines tvrip (Tagalog) [tukmol101]

  • Download 5x Faster
  • Download torrent
  • Direct Download
  • Rate this torrent +  |  -

Torrent info

Name:PBB Double Up S03E22 2nd nomination Night 10 25 09 Philippines tvrip (Tagalog) [tukmol101]

Total Size: 420.55 MB

Magnet: Magnet Link

Seeds: 0

Leechers: 0

Stream: Watch Full Movie @ Movie4u

Last Updated: 2018-04-15 15:17:07 (Update Now)

Torrent added: 2009-10-25 22:14:54



CyberGhost VPN For Torrents

Torrent Files List


2nd NOMINATION NIGHT.avi (Size: 420.55 MB) (Files: 2)

 2nd NOMINATION NIGHT.avi

420.54 MB

 2nd Nomination Night.nfo

5.29 KB
 

tracker

leech seeds
 

Torrent description

Episode 22 Ocotber 25, 2009

Carol, Yhel, Marielle, Tibo and Delio form the second set of PBB Double Up nominees

It was just yesterday that Carol was able to breathe a sigh of relief after hearing
that she was safe from eviction. She believed that many did vote for her, and she expressed
her gratefulness for their support. Little did she know that she would be calling on this
support yet again, as she joins the list of nominees for the second time. Her inability to
control her emotions proved to be her downfall, as it came to the point that she allowed
this to rule her actions. The other housemates viewed this as a sign of immaturity, something
that had already caused friction within House B. Tension between her and Hermes was a concrete
example of this. Carol seems to be growing up, though, as she accepted her second nomination with
a smile, a total shift from last week?s tears.

Yhel and Marielle were given automatic nominations by Kuya. Like Princess (who has opted for a
Voluntary Exit after Kuya called her attention on a violation), they committed a major violation
about discussing the nominations. Marielle casually told Yhel about not voting for someone, and
Yhel made the mistake of repeating this information to someone else. Their housemates were informed
of this and were given the chance to perform a task in exchange for the safety of one of them. Finally,
House B was successful in their task, and they chose to save Marielle, leaving Yhel with the automatic
nomination. This action was overturned by the housemates themselves, as their votes led to Marielle being
nominated anyway. They felt that she had committed too many violations, even involving Yhel in the process.
With her tough personality, they also believed she would be able to handle the stress of the nomination with
ease. For their last words, both remained perky as they asked for another chance to show the world what they

Tibo was, surprisingly, part of the list of nominees. Aside from the fact that his housemates felt he would
rather be with his family, his change of decision regarding last week's task was what cost him points.
Delio was also nominated. Apparently, Princess was not the only one who felt his tough act was getting old.
Quite a number of the housemates felt that he was difficult to talk to, being too self-righteous and egoistic
by refusing to consider the opinions of others. Both housemates remained calm upon hearing their fate,
believing that everyone had to experience it at some point. They kept their message short and sweet,
both asking for support from their kababayans and sending an "I love you" to their respective families.

The polls are now open to receive your votes! Who do you think deserves another shot to stay in the house?
Make your vote count by texting BB

General
Complete name : 2nd NOMINATION NIGHT.avi
Format : AVI
Format/Info : Audio Video Interleave
File size : 421 MiB
Duration : 46mn 25s
Overall bit rate : 1 266 Kbps
Writing application : VirtualDubMod 1.5.4.1 (build 2178/release)
Writing library : VirtualDubMod build 2178/release

Video
ID : 0
Format : MPEG-4 Visual
Format profile : [email protected]
Format settings, BVOP : Yes
Format settings, QPel : No
Format settings, GMC : No warppoints
Format settings, Matrix : Default (H.263)
Muxing mode : Packed bitstream
Codec ID : XVID
Codec ID/Hint : XviD
Duration : 46mn 25s
Bit rate : 1 148 Kbps
Width : 576 pixels
Height : 432 pixels
Display aspect ratio : 4:3
Frame rate : 29.970 fps
Resolution : 24 bits
Colorimetry : 4:2:0
Scan type : Progressive
Bits/(Pixel*Frame) : 0.154
Stream size : 381 MiB (91%)
Writing library : XviD 1.2.1 (UTC 2008-12-04)

Audio
ID : 1
Format : MPEG Audio
Format version : Version 1
Format profile : Layer 3
Codec ID : 55
Codec ID/Hint : MP3
Duration : 46mn 25s
Bit rate mode : Variable
Bit rate : 105 Kbps
Nominal bit rate : 128 Kbps
Channel(s) : 2 channels
Sampling rate : 48.0 KHz
Resolution : 16 bits
Stream size : 34.8 MiB (8%)
Alignment : Aligned on interleaves
Interleave, duration : 24 ms (0.72 video frame)
Interleave, preload duration : 542 ms
Writing library : LAME3.98r
Encoding settings : -m j -V 4 -q 2 -lowpass 17 --abr 128


Stay tuned as more revelations come your way this week. Watch out for the Big Swap, the weekly task, a new housemate and the second evictee of the season!

related torrents

Torrent name

health leech seeds Size
 


comments (0)

Main Menu