Kiss of Revenge | Firefox Beta | Download

Big Brother

PBB Double Up S03E23 10 26 09 Philippines tvrip x264 (Tagalog) [tukmol101]

  • Download 5x Faster
  • Download torrent
  • Direct Download
  • Rate this torrent +  |  -

Torrent info

Name:PBB Double Up S03E23 10 26 09 Philippines tvrip x264 (Tagalog) [tukmol101]

Total Size: 267.79 MB

Magnet: Magnet Link

Seeds: 0

Leechers: 0

Stream: Watch Full Movie @ Movie4u

Last Updated: 2018-04-15 15:11:42 (Update Now)

Torrent added: 2009-10-26 18:12:58



CyberGhost VPN For Torrents

Torrent Files List


PBBDU S03E23.avi (Size: 267.79 MB) (Files: 1)

 PBBDU S03E23.avi

267.79 MB
 

tracker

leech seeds
 

Torrent description

Yhel gets automatically nominated for this week’s eviction night

Princess performs a major violation inside Big Brother’s House B,
thus immediately causing her automatic nomination for eviction this week.
Unfortunately, Big Brother caught her red-handed speaking of her opinion
regarding the nomination process. Luckily, Princess is given another chance
to prove her stay inside the house with the help of her housemates; but surprisingly,
she refuses to take the said offer. Instead pursuing her chance through her housemates’
initiative, she courageously takes the consequence of her actions by instantly suggesting
her final decision to voluntarily exit.

On the other hand, House A faces the same dilemma. Apparently, Big Brother also caught Mariel
and Yhel guilty of the same crime. In line with the said incident, Big Brother offers the same
bargain to the said house, which all of their housemates clearly accepted without any hesitation.

And just as Big Brother promised, Mariel is instantly saved from this week’s eviction night after
House A housemates successfully performs the task he has given them. Sadly, he only offered one slot
of salvation in the said house, thus leaving Yhel with no other choice but to spend the rest of the
week worrying about her possible eviction this coming Saturday.

Could Yhel survive this rather unexpected trial? Stay tuned on the latest updates of Pinoy Big Brother


Double Up to find out.


General
Complete name : PBBDU S03E23.avi
Format : AVI
Format/Info : Audio Video Interleave
File size : 268 MiB
Duration : 33mn 24s
Overall bit rate : 1 121 Kbps
Writing application : MEncoder Sherpya-SVN-r29319-4.5.0
Writing library : MPlayer

Video
ID : 0
Format : AVC
Format/Info : Advanced Video Codec
Format profile : [email protected]
Format settings, CABAC : Yes
Format settings, ReFrames : 6 frames
Codec ID : h264
Duration : 33mn 23s
Bit rate : 979 Kbps
Width : 592 pixels
Height : 432 pixels
Display aspect ratio : 4:3
Frame rate : 29.970 fps
Resolution : 24 bits
Colorimetry : 4:2:0
Scan type : Progressive
Bits/(Pixel*Frame) : 0.128
Stream size : 234 MiB (87%)
Writing library : x264 core 67 r1158M a2c01c1

Audio
ID : 1
Format : MPEG Audio
Format version : Version 1
Format profile : Layer 3
Codec ID : 55
Codec ID/Hint : MP3
Duration : 33mn 24s
Bit rate mode : Constant
Bit rate : 128 Kbps
Channel(s) : 2 channels
Sampling rate : 48.0 KHz
Resolution : 16 bits
Video delay : 67ms
Stream size : 30.6 MiB (11%)
Alignment : Aligned on interleaves
Interleave, duration : 24 ms (0.72 video frame)
Interleave, preload duration : 504 ms


related torrents

Torrent name

health leech seeds Size
 


comments (0)

Main Menu